Начать новую тему Ответить на тему
Статистика раздачи
Размер: 11.15 ГБ | Добавлен: 17 окт 2020, 11:38
Сидеров: 86    Личеров: 38
Автор Сообщение

СообщениеДобавлено: 17 окт 2020, 11:38 

Не в сети
Администратор
Аватара пользователя
Раздал: 81.84 ГБ
Скачал: 37.92 ГБ
Ратио: 2.158
Спасибо: 8995 / 58
Сообщения: 39960
Зарегистрирован: 31 дек 2013, 23:53
Год выхода: 1989
Жанр: фантастика, триллер, детектив
Режиссер: Майкл Андерсон

В ролях: Крис Кристофферсон, Шерил Лэдд, Дэниел Дж. Траванти, Роберт Джой, Ллойд Бокнер, Брент Карвер, Дэвид Макилрайт, Мори Чайкин, Эл Уоксмен, Лоуренс Дэйн

О фильме:
Культовая фантастика эпохи, когда кофе без кофеина и молоко без лактозы еще не вошли в моду, но повсеместное присутствие ГМО становились привычным явлением. И будущее уже тогда рисовалось антипатичным: отравленные средой люди мутировали от поколения к поколению, в течение тысячи лет, пока человечество не выродилось едва ли не полностью.
Единственное лекарство — приток свежих генов из прошлого. Специальные команды тренированных девушек, одетых стюардессами, извлекают пассажиров самолетов, обреченных на катастрофу, и отправляют их в далекое будущее. Такой метод позволяет избежать темпоральных парадоксов, и хоть как-то поддерживает существование человечества.
Все шло хорошо, пока один мальчишка, чудом выживший в авиакатастрофе, не увидел того, что не должен был видеть.



Страна: США, Канада
Продолжительность: 01:45:43
Перевод: профессиональный (дублированный); профессиональный (двухголосый, закадровый).

Файл
Кодек: AVC/H.264
Качество: BDRip 1080p
Видео: 1920х1040, ~13 Mbps, 23,976 fps
Звук:
1. AC3, 2 ch, 192 kbps - русский (Dub, Мосфильм)
2. AAC, 2 ch, 192 kbps - русский (DVO, OPT)
3. AAC, 2 ch, 192 kbps - русский (DVO, Гланц, Королёва)
4. DTS, 2 ch, 1536 kbps - english
Субтитры: английские

Релиз от: Веселый Гном

General
Unique ID : 130821211988805181837550819584524274681 (0x626B3FBB62B55BAFCBCB45567CF9CBF9)
Complete name : F:BUFERSБуферBousculer en µMillennium.1989 III1 Millennium°1989 [Веселый Гном] III.mkv
Format : Matroska
Format version : Version 4
File size : 11.2 GiB
Duration : 1 h 45 min
Overall bit rate : 15.1 Mb/s
Encoded date : UTC 2020-10-16 13:13:24
Writing application : mkvmerge v29.0.0 ('Like It Or Not') 64-bit
Writing library : libebml v1.3.6 + libmatroska v1.4.9 / Lavf58.49.100
Copyright : Œuvre de Gnome Jovial

Video
ID : 6
Format : AVC
Format/Info : Advanced Video Codec
Format profile : High@L4.1
Format settings : CABAC / 4 Ref Frames
Format settings, CABAC : Yes
Format settings, ReFrames : 4 frames
Codec ID : V_MPEG4/ISO/AVC
Duration : 1 h 45 min
Bit rate : 13.0 Mb/s
Width : 1 920 pixels
Height : 1 040 pixels
Display aspect ratio : 1.85:1
Frame rate mode : Constant
Frame rate : 23.976 (24000/1001) FPS
Color space : YUV
Chroma subsampling : 4:2:0
Bit depth : 8 bits
Scan type : Progressive
Bits/(Pixel*Frame) : 0.272
Stream size : 9.59 GiB (86%)
Writing library : x264 core 157 r2935 545de2f
Encoding settings : cabac=1 / ref=4 / deblock=1:-2:-2 / analyse=0x3:0x133 / me=umh / subme=11 / psy=1 / psy_rd=1.00:0.00 / mixed_ref=1 / me_range=48 / chroma_me=1 / trellis=2 / 8x8dct=1 / cqm=0 / deadzone=21,11 / fast_pskip=0 / chroma_qp_offset=-2 / threads=12 / lookahead_threads=3 / sliced_threads=0 / nr=0 / decimate=0 / interlaced=0 / bluray_compat=0 / constrained_intra=0 / bframes=12 / b_pyramid=2 / b_adapt=2 / b_bias=0 / direct=3 / weightb=1 / open_gop=0 / weightp=2 / keyint=240 / keyint_min=24 / scenecut=40 / intra_refresh=0 / rc_lookahead=60 / rc=2pass / mbtree=1 / bitrate=13000 / ratetol=1.0 / qcomp=0.70 / qpmin=0 / qpmax=69 / qpstep=4 / cplxblur=20.0 / qblur=0.5 / vbv_maxrate=62500 / vbv_bufsize=78125 / nal_hrd=none / filler=0 / ip_ratio=1.40 / aq=2:0.70
Default : Yes
Forced : No
Color range : Limited
Color primaries : BT.709
Transfer characteristics : BT.709
Matrix coefficients : BT.709

Audio #1
ID : 1
Format : AC-3
Format/Info : Audio Coding 3
Commercial name : Dolby Digital
Codec ID : A_AC3
Duration : 1 h 45 min
Bit rate mode : Constant
Bit rate : 192 kb/s
Channel(s) : 2 channels
Channel layout : L R
Sampling rate : 48.0 kHz
Frame rate : 31.250 FPS (1536 SPF)
Bit depth : 16 bits
Compression mode : Lossy
Delay relative to video : -10 ms
Stream size : 145 MiB (1%)
Title : Мосфильм
Language : Russian
Service kind : Complete Main
Default : Yes
Forced : No

Audio #2
ID : 2
Format : AAC LC
Format/Info : Advanced Audio Codec Low Complexity
Codec ID : A_AAC-2
Duration : 1 h 45 min
Bit rate : 192 kb/s
Channel(s) : 2 channels
Channel layout : L R
Sampling rate : 44.1 kHz
Frame rate : 43.066 FPS (1024 SPF)
Compression mode : Lossy
Delay relative to video : -21 ms
Stream size : 143 MiB (1%)
Title : OPT
Language : Russian
Default : No
Forced : No

Audio #3
ID : 3
Format : AAC LC
Format/Info : Advanced Audio Codec Low Complexity
Codec ID : A_AAC-2
Duration : 1 h 45 min
Bit rate : 192 kb/s
Channel(s) : 2 channels
Channel layout : L R
Sampling rate : 44.1 kHz
Frame rate : 43.066 FPS (1024 SPF)
Compression mode : Lossy
Delay relative to video : -21 ms
Stream size : 143 MiB (1%)
Language : Russian
Default : No
Forced : No

Audio #4
ID : 4
Format : DTS
Format/Info : Digital Theater Systems
Codec ID : A_DTS
Duration : 1 h 45 min
Bit rate mode : Constant
Bit rate : 1 536 kb/s
Channel(s) : 2 channels
Channel layout : L R
Sampling rate : 48.0 kHz
Frame rate : 93.750 FPS (512 SPF)
Bit depth : 16 bits
Compression mode : Lossy
Delay relative to video : -21 ms
Stream size : 1.13 GiB (10%)
Language : English
Default : No
Forced : No

Text
ID : 5
Format : UTF-8
Codec ID : S_TEXT/UTF8
Codec ID/Info : UTF-8 Plain Text
Duration : 1 h 40 min
Bit rate : 53 b/s
Count of elements : 1316
Stream size : 39.7 KiB (0%)
Language : English
Default : Yes
Forced : No


Торрент:  Добавлен [17 окт 2020, 11:38]

Скачать торрент Магнет ссылка
Скачать торрент

Кем проверен:
 by jons3 (17 окт 2020, 11:39)
Размер:  11.15 ГБ
Скачали:  449
Здоровье: 100%
Приватный:  Нет (DHT включён)

_________________
Проголосуй за трекер RuTracker - Лучший торрент трекер


Вернуться к началу
 Профиль  
 
Начать новую тему Ответить на тему  [ 1 сообщение ] 
   Похожие торренты   Автор   Торрент   Размер 
В этой теме нет новых непрочитанных сообщений. 12 обезьян / Twelve Monkeys [Фантастика, триллер, детектив, 1995] BDRip-HEVC 1080p, Dub

jons3

0 | 0

7.55 ГБ

В этой теме нет новых непрочитанных сообщений. К звёздам / Ad Astra [Фантастика, триллер, детектив, 2019] UHD BDRip 1080p, Dub [iTunes]

jons3

4823 | 1141

9.6 ГБ

В этой теме нет новых непрочитанных сообщений. Назад в будущее 2 / Back to the Future Part II [Комедия, Приключения, Фантастика, 1989] BDRip 1080p, Dub

jons3

0 | 0

4.74 ГБ

В этой теме нет новых непрочитанных сообщений. Стекло / Glass [Фантастика, триллер, драма, детектив, 2019] BDRip 1080p, Dub | [Чистый звук]

Hexen

705 | 71

11.68 ГБ

В этой теме нет новых непрочитанных сообщений. Контакт / Communion [ужасы, фантастика, триллер, 1989] BDRip 1080p, Mvo [Расширенная версия]

jons3

12 | 5

9.22 ГБ




Вы не можете начинать темы
Вы не можете отвечать на сообщения
Вы не можете редактировать свои сообщения
Вы не можете удалять свои сообщения
Вы не можете добавлять вложения

Перейти: