Начать новую тему Ответить на тему
Статистика раздачи
Размер: 2.18 ГБ | Добавлен: 30 июн 2020, 01:51
Сидеров: 0    Личеров: 1
Автор Сообщение

СообщениеДобавлено: 30 июн 2020, 01:51 

Не в сети
RG-Rutracker
RG-Rutracker
Раздал: 145.73 ГБ
Скачал: 154.69 ГБ
Ратио: 0.942
Спасибо: 20 / 10
Сообщения: 1412
Зарегистрирован: 05 июн 2019, 20:40
Перевод: Профессиональный (полное дублирование)+Профессиональский (многоголосый закадровый), cубтитры: отсутствуют
Формат: WEBDLRip-AVC, MKV, H.264, AC3
Страна: США, Австралия
Режиссер: Дэвид МакНелли
Жанр: комедия, криминал, приключения, семейный
Продолжительность: 01:29:04
Год выпуска: 2003
В ролях: Кристофер Уокен, Джерри О`Коннелл, Энтони Андерсон, Эстелла Уоррен, Дайан Кэннон, Мартон Ксокас

Описание: Музыкант и его лучший друг, Нью-Йоркский дизайнер причесок, оказываются вовлеченными в делишки мафии и вынуждены отправится в Австралию, чтобы передать там 50 тысяч долларов. Но простая на вид задача превращается в настоящее испытание, когда некое неблагоразумное кенгуру вместе с их денежками пускается в бега. ..



Видео: 1024x432 (2.40:1), 23.976 fps, AVC MPEG4 (x264), , ~2229 kbps avg, 0.210 bit/pixel
Аудио #1: Русский:48 kHz, AC3 Dolby Digital, 3/2 (L,C,R,l,r) + LFE ch, ~384 kbps [Профессиональный (полное дублирование)]
Аудио #2: Русский:48 kHz, AC3 Dolby Digital, 3/2 (L,C,R,l,r) + LFE ch, ~448 kbps [Профессиональский (многоголосый закадровый)]
Аудио #3: Английский:48 kHz, AC3 Dolby Digital, 3/2 (L,C,R,l,r) + LFE ch, ~448 kbps [Оригинал]

General
Unique ID : 255086759801186008058211719843176534081 (0xBFE7EC43F2501400A3BE8BFEE0185041)
Complete name : C:Users123DesktopКенгуру.Джекпот.2003.WEB-DLRip-AVC_[tfile.ru].mkv
Format : Matroska
Format version : Version 4 / Version 2
File size : 2.18 GiB
Duration : 1h 29mn
Overall bit rate mode : Constant
Overall bit rate : 3 508 Kbps
Encoded date : UTC 2018-06-27 13:49:29
Writing application : mkvmerge v7.4.0 (''Circles'') 64bit built on Dec 12 2014 12:19:56
Writing library : Lavf56.36.100

Video
ID : 1
Format : AVC
Format/Info : Advanced Video Codec
Format profile :
Format settings, CABAC : Yes
Format settings, ReFrames : 2 frames
Format settings, GOP : M=1, N=25
Codec ID : V_MPEG4/ISO/AVC
Duration : 1h 29mn
Bit rate mode : Constant
Bit rate : 2 229 Kbps
Width : 1 024 pixels
Height : 432 pixels
Display aspect ratio : 2.40:1
Frame rate mode : Constant
Frame rate : 23.976 fps
Color space : YUV
Chroma subsampling : 4:2:0
Bit depth : 8 bits
Scan type : Progressive
Bits/(Pixel*Frame) : 0.210
Stream size : 1.34 GiB (62%)
Language : English
Default : Yes
Forced : No
DURATION : 01:29:04.032000000
NUMBER_OF_FRAMES : 167001
NUMBER_OF_BYTES : 299265792
_STATISTICS_WRITING_APP : mkvmerge v7.4.0 (''Circles'') 64bit built on Dec 12 2014 12:19:56
_STATISTICS_WRITING_DATE_UTC : 2020-05-19 14:39:51
_STATISTICS_TAGS : BPS DURATION NUMBER_OF_FRAMES NUMBER_OF_BYTES

Audio #1
ID : 2
Format : AC-3
Format/Info : Audio Coding 3
Mode extension : CM (complete main)
Format settings, Endianness : Big
Codec ID : A_AC3
Duration : 1h 29mn
Bit rate mode : Constant
Bit rate : 384 Kbps
Channel(s) : 6 channels
Channel positions : Front: L C R, Side: L R, LFE
Sampling rate : 48.0 KHz
Compression mode : Lossy
Stream size : 245 MiB (11%)
Title : DUB | Мосфильм-Мастер
Language : Russian
Default : No
Forced : No
DURATION : 01:29:04.032000000
NUMBER_OF_FRAMES : 167001
NUMBER_OF_BYTES : 256513536
_STATISTICS_WRITING_APP : mkvmerge v7.4.0 (''Circles'') 64bit built on Dec 12 2014 12:19:56
_STATISTICS_WRITING_DATE_UTC : 2020-05-19 14:39:51
_STATISTICS_TAGS : BPS DURATION NUMBER_OF_FRAMES NUMBER_OF_BYTES

Audio #2
ID : 3
Format : AC-3
Format/Info : Audio Coding 3
Mode extension : CM (complete main)
Format settings, Endianness : Big
Codec ID : A_AC3
Duration : 1h 29mn
Bit rate mode : Constant
Bit rate : 448 Kbps
Channel(s) : 6 channels
Channel positions : Front: L C R, Side: L R, LFE
Sampling rate : 48.0 KHz
Compression mode : Lossy
Stream size : 285 MiB (13%)
Title : MVO
Language : Russian
Default : No
Forced : No
DURATION : 01:29:04.032000000
NUMBER_OF_FRAMES : 167001
NUMBER_OF_BYTES : 299265792
_STATISTICS_WRITING_APP : mkvmerge v7.4.0 (''Circles'') 64bit built on Dec 12 2014 12:19:56
_STATISTICS_WRITING_DATE_UTC : 2020-05-19 14:39:51
_STATISTICS_TAGS : BPS DURATION NUMBER_OF_FRAMES NUMBER_OF_BYTES

Audio #3
ID : 4
Format : AC-3
Format/Info : Audio Coding 3
Mode extension : CM (complete main)
Format settings, Endianness : Big
Codec ID : A_AC3
Duration : 1h 29mn
Bit rate mode : Constant
Bit rate : 448 Kbps
Channel(s) : 6 channels
Channel positions : Front: L C R, Side: L R, LFE
Sampling rate : 48.0 KHz
Compression mode : Lossy
Stream size : 285 MiB (13%)
Title : Original | 5.1
Language : English
Default : Yes
Forced : No
DURATION : 01:29:04.047000000
NUMBER_OF_FRAMES : 128129
NUMBER_OF_BYTES : 1486830343
_STATISTICS_WRITING_APP : mkvmerge v7.4.0 (''Circles'') 64bit built on Dec 12 2014 12:19:56
_STATISTICS_WRITING_DATE_UTC : 2020-05-19 14:39:51
_STATISTICS_TAGS : BPS DURATION NUMBER_OF_FRAMES NUMBER_OF_BYTES









Торрент:  Добавлен [30 июн 2020, 01:51]

Скачать торрент Магнет ссылка
Скачать торрент

Кем проверен:  
Размер:  2.18 ГБ
Скачали:  0
Здоровье: ???%
Приватный:  Нет (DHT включён)


Вернуться к началу
 Профиль  
 
Начать новую тему Ответить на тему  [ 1 сообщение ] 
   Похожие торренты   Автор   Торрент   Размер 
В этой теме нет новых непрочитанных сообщений. Кенгуру Джекпот / Kangaroo Jack [Комедия, приключения, 2003] WEB-DLRip-AVC, Dub

jons3

0 | 0

748.66 МБ

В этой теме нет новых непрочитанных сообщений. Кенгуру Джекпот / Kangaroo Jack [Комедия, приключения, 2003] WEB-DLRip-AVC, Dub

jons3

16 | 9

2.19 ГБ

В этой теме нет новых непрочитанных сообщений. Кенгуру Джекпот / Kangaroo Jack [Комедия, приключения, криминал, 2003] WEB-DL 1080p, Dub

jons3

0 | 0

8.3 ГБ

В этой теме нет новых непрочитанных сообщений. Шанхайский перевозчик / S.M.A.R.T. Chase [Боевик, комедия, приключения, 2017] WEBDLRip-AVC, Dub [iTunes]

jons3

725 | 51

1.46 ГБ

В этой теме нет новых непрочитанных сообщений. Чумовая пятница / Freaky Friday [фэнтези, комедия, семейный, 2003] BDRip-AVC, Dub

jons3

11 | 2

2.18 ГБ




Вы не можете начинать темы
Вы не можете отвечать на сообщения
Вы не можете редактировать свои сообщения
Вы не можете удалять свои сообщения
Вы не можете добавлять вложения

Перейти:  
cron